<?xml version="1.0" standalone="no"?>
<!DOCTYPE svg PUBLIC "-//W3C//DTD SVG 1.1//EN" "http://www.w3.org/Graphics/SVG/1.1/DTD/svg11.dtd" >
<svg xmlns="http://www.w3.org/2000/svg">
<metadata>Generated by IcoMoon</metadata>
<defs>
<font id="icomoon" horiz-adv-x="1024">
<font-face units-per-em="1024" ascent="960" descent="-64" />
<missing-glyph horiz-adv-x="1024" />
<glyph unicode="&#x20;" horiz-adv-x="512" d="" />
<glyph unicode="&#xe900;" glyph-name="Icon-Addmore" d="M512 960c282.325 0 512-229.675 512-512s-229.675-512-512-512c-282.325 0-512 229.675-512 512s229.675 512 512 512zM512 874.667c-235.264 0-426.667-191.403-426.667-426.667s191.403-426.667 426.667-426.667c235.264 0 426.667 191.403 426.667 426.667s-191.403 426.667-426.667 426.667zM512 688c24.301 0 44.383-18.058 47.562-41.487l0.438-6.513v-144h144c26.51 0 48-21.49 48-48 0-24.301-18.058-44.383-41.487-47.562l-6.513-0.438h-144v-144c0-26.51-21.49-48-48-48-24.301 0-44.383 18.058-47.562 41.487l-0.438 6.513v144h-144c-26.51 0-48 21.49-48 48 0 24.301 18.058 44.383 41.487 47.562l6.513 0.438h144v144c0 26.51 21.49 48 48 48z" />
<glyph unicode="&#xe901;" glyph-name="Icon-Address" d="M507.799 589.016l17.857-0.696c31.037-2.354 54.345-28.881 51.977-59.135-2.36-30.302-29.494-53.108-60.491-50.809-16.695 1.224-33.659-0.5-50.366-5.043-0.189-0.051-0.387-0.102-0.58-0.154-35.149-9.311-66.194-30.152-87.569-58.765-3.774-4.933-6.907-9.574-9.904-14.684-21.371-36.42-26.937-78.866-15.672-119.514 11.269-40.652 37.997-74.544 75.261-95.436v0l209.623-117.526c37.232-20.865 80.356-26.345 121.49-15.448 0.411 0.106 0.801 0.209 1.188 0.315 41.384 10.96 75.881 36.998 97.236 73.386 21.367 36.416 26.929 78.862 15.664 119.506-11.269 40.656-37.997 74.552-75.261 95.444-26.969 15.117-36.329 48.864-20.855 75.225 15.47 26.365 49.991 35.51 76.964 20.389 63.359-35.514 108.799-93.129 127.954-162.229 19.16-69.095 9.695-141.253-26.643-203.179-36.362-61.962-95.061-106.298-165.351-124.919-0.528-0.138-1.059-0.28-1.587-0.417-70.053-18.562-143.509-9.228-206.904 26.31v0l-209.623 117.526c-130.999 73.437-176.451 237.367-101.312 365.408 5.224 8.905 10.79 17.204 17.017 25.369 36.378 48.714 89.426 84.232 149.14 99.775 29.023 7.822 58.844 10.795 88.604 8.606zM235.194 950.678c70.049 18.554 143.509 9.224 206.896-26.318v0l209.627-117.522c63.359-35.518 108.799-93.133 127.958-162.229 19.152-69.091 9.695-141.249-26.651-203.179-5.264-8.98-10.834-17.271-17.017-25.333-36.172-48.447-88.798-83.795-148.205-99.531-0.834-0.213-1.671-0.445-2.509-0.669-28.512-7.551-57.809-10.303-87.033-8.157-30.993 2.287-54.313 28.802-51.985 59.107 2.352 30.294 29.494 53.068 60.479 50.793 16.715-1.236 33.707 0.484 50.39 5.027 35.214 9.307 66.662 30.148 88.149 58.915 3.77 4.921 6.899 9.563 9.908 14.692 21.379 36.427 26.945 78.874 15.676 119.518s-38.001 74.536-75.269 95.429v0l-209.623 117.522c-37.405 20.971-80.871 26.247-122.082 15.298-0.193-0.051-0.391-0.102-0.588-0.154-41.388-10.964-75.885-37.006-97.24-73.394-44.195-75.319-17.464-171.748 59.593-214.95 26.973-15.113 36.329-48.864 20.859-75.229-15.466-26.361-49.999-35.51-76.964-20.389-130.999 73.445-176.447 237.367-101.312 365.412 36.362 61.962 95.057 106.302 165.343 124.915 0.532 0.142 1.063 0.283 1.599 0.425z" />
<glyph unicode="&#xe902;" glyph-name="Icon-Android" d="M801.237 616.625v-409.896c0-18.867-6.688-34.859-20.108-47.99-13.492-13.088-29.639-19.675-48.572-19.675v0h-47.266v-139.72c0-17.592-6.282-32.579-18.918-44.916-12.593-12.309-27.942-18.428-45.96-18.428-18.091 0-33.44 6.119-46.018 18.428-12.636 12.337-18.933 27.324-18.933 44.916v0 139.72h-86.988v-139.72c0-17.592-6.296-32.579-18.874-44.916-12.636-12.309-27.942-18.428-46.018-18.428-17.627 0-32.758 6.119-45.395 18.428-12.578 12.337-18.918 27.324-18.918 44.916v0l-0.624 139.72h-46.642c-19.324 0-35.703 6.587-49.138 19.675-13.492 13.131-20.166 29.123-20.166 48.046v0 409.84h578.537zM133.16 628.294c17.67 0 32.802-6.147 45.395-18.428 12.636-12.337 18.918-27.111 18.918-44.321v0-264.638c0-17.663-6.224-32.593-18.584-44.93-12.404-12.281-27.652-18.428-45.728-18.428-18.033 0-33.382 6.147-45.96 18.428-12.636 12.337-18.933 27.267-18.933 44.93v0 264.638c0 17.21 6.296 31.984 18.933 44.321 12.578 12.281 27.927 18.428 45.96 18.428zM890.782 628.294c18.077 0 33.44-6.034 46.018-18.145 12.636-12.125 18.933-27.012 18.933-44.604v0-264.638c0-17.663-6.296-32.593-18.933-44.93-12.578-12.281-27.942-18.428-46.018-18.428-17.627 0-32.758 6.147-45.337 18.428-12.636 12.337-18.933 27.267-18.933 44.93v0 264.638c0 17.592 6.296 32.48 18.933 44.604 12.578 12.111 27.71 18.145 45.337 18.145zM684.055 955.073c2.945 4.927 7.138 6.147 12.636 3.711 5.034-2.875 6.064-6.969 3.105-12.337v0l-44.713-80.625c44.945-22.564 80.88-54.052 107.734-94.45 26.926-40.44 40.346-84.591 40.346-132.623v0h-582.962c0 48.032 13.42 92.183 40.346 132.623 26.854 40.398 63.021 71.886 108.416 94.45v0l-44.771 80.625c-2.945 5.368-1.93 9.405 3.105 12.337 5.498 2.436 9.691 1.216 12.651-3.711v0l45.38-81.22c39.896 17.21 82.128 25.836 126.667 25.836s86.77-8.626 126.725-25.836v0zM645.001 789.531c-6.746 0-12.52-2.38-17.337-7.082-4.875-4.703-7.254-10.354-7.254-16.941 0-6.572 2.379-12.167 7.254-16.87 4.817-4.759 10.591-7.139 17.337-7.139 6.688 0 12.361 2.38 17.003 7.139 4.584 4.703 6.92 10.34 6.92 16.87 0 6.587-2.336 12.238-6.92 16.941-4.642 4.703-10.315 7.082-17.003 7.082zM378.988 789.531c-6.688 0-12.419-2.38-17.003-7.082-4.642-4.703-6.906-10.354-6.906-16.941 0-6.572 2.263-12.167 6.906-16.87 4.584-4.759 10.257-7.139 17.003-7.139s12.52 2.38 17.337 7.139c4.817 4.703 7.254 10.34 7.254 16.87 0 6.587-2.437 12.238-7.254 16.941s-10.591 7.082-17.337 7.082z" />
<glyph unicode="&#xe903;" glyph-name="Icon-App" d="M791.537 960c63.032 0 114.309-49.344 114.309-110v0-804c0-60.656-51.277-110-114.309-110v0h-559.075c-63.032 0-114.309 49.344-114.309 110v0 804c0 60.656 51.277 110 114.309 110v0zM843.496 132.8h-662.992v-86.8c0-27.573 23.305-50 51.959-50v0h559.074c28.653 0 51.959 22.427 51.959 50v0 86.8zM512 106.729c24.294 0 43.986-18.949 43.986-42.328 0-21.82-17.154-39.784-39.193-42.082l-4.793-0.248c-24.294 0-43.986 18.952-43.986 42.331s19.692 42.328 43.986 42.328zM791.537 900h-559.074c-28.653 0-51.959-22.427-51.959-50v0-657.2h662.992v657.2c0 27.573-23.305 50-51.959 50v0zM354.722 625.595c5.631 0 10.419-3.96 11.265-9.317l43.545-276.229c1.025-6.509-4.209-12.371-11.051-12.371h-21.191c-5.6 0-10.336 3.989-11.079 9.331l-6.094 43.821h-49.955l-5.492-43.688c-0.682-5.403-5.442-9.464-11.098-9.464h-22.59c-6.8 0-12.027 5.797-11.065 12.275l40.935 276.227c0.801 5.403 5.609 9.416 11.278 9.416h42.592zM525.724 625.596c24.040 0 40.483-7.027 49.337-21.075 8.857-14.051 13.515-35.013 13.986-62.885v-6.261c0-29.568-4.37-51.995-13.102-67.285-8.737-15.293-24.951-22.939-48.639-22.939h-25.508v-106.344c0-6.144-5.179-11.131-11.567-11.131h-24.006c-6.39 0-11.569 4.987-11.569 11.131v275.005c0 6.509 5.484 11.784 12.246 11.784h58.823zM702.58 625.596c24.040 0 40.483-7.027 49.337-21.075 8.857-14.051 13.515-35.013 13.986-62.885v-6.261c0-29.568-4.37-51.995-13.102-67.285-8.737-15.293-24.951-22.939-48.639-22.939h-25.505v-105.453c0-6.637-5.595-12.021-12.492-12.021h-22.158c-6.9 0-12.492 5.384-12.492 12.021v274.115c0 6.509 5.481 11.784 12.243 11.784h58.823zM334.438 566.859h-0.704l-18.999-149.635h40.458l-20.756 149.635zM518.336 590.727h-16.538v-108.165h16.186c9.968 0 16.447 3.696 19.434 11.088 2.996 7.389 4.489 21.467 4.489 42.232v5.755c-0.119 17.605-1.732 30.187-4.838 37.749-3.109 7.557-9.353 11.341-18.733 11.341zM695.192 590.727h-16.535v-108.165h16.183c9.968 0 16.447 3.696 19.437 11.088 2.993 7.389 4.486 21.467 4.486 42.232v5.755c-0.119 17.605-1.732 30.187-4.838 37.749-3.109 7.557-9.353 11.341-18.733 11.341zM597.212 840c17.223 0 31.175-13.427 31.175-30s-13.953-30-31.175-30v0h-170.424c-17.223 0-31.175 13.427-31.175 30s13.953 30 31.175 30v0z" />
<glyph unicode="&#xe904;" glyph-name="Icon-apple" d="M730.653 710.557c76.59-11.692 130.768-46.409 164.299-99.773-64.59-41.912-115.827-105.169-107.062-213.156 7.765-98.094 63.884-155.535 133.71-189.232v-2.099c-20.236-62.058-48.707-115.002-83.649-164.409-31.942-44.73-71.002-104.929-140.769-104.929-60.531 0-100.473 39.573-162.299 40.473-65.296 1.199-101.356-33.038-161.122-41.432h-20.412c-43.884 6.356-79.296 41.912-105.003 73.75-76.061 94.436-134.886 216.214-145.945 372.228v45.629c4.588 111.705 57.884 202.363 128.474 246.374 37.413 23.444 88.708 43.351 145.887 34.477 24.354-3.777 49.413-12.412 71.473-20.866 20.706-8.214 46.648-22.485 71.237-21.765 16.765 0.48 33.295 9.354 50.178 15.649 49.296 18.048 97.591 38.914 161.005 29.080zM712.488 960c5.765-72.131-21.354-126.215-54.237-165.368-32.177-38.614-76.473-76.328-147.71-70.752-4.824 71.232 22.295 121.358 55.119 160.212 30.354 36.335 86.179 68.654 139.71 75.909h7.118z" />
<glyph unicode="&#xe905;" glyph-name="Icon-Close" d="M995.386 931.409c-38.144 38.121-99.979 38.121-138.124 0l-345.277-345.31-345.277 345.31c-38.112 38.121-99.979 38.121-138.099 0-38.144-38.145-38.144-99.982 0-138.127l345.277-345.286-345.277-345.286c-38.144-38.145-38.144-99.982 0-138.127 19.044-19.044 44.069-28.583 69.054-28.583s49.969 9.506 69.046 28.583l345.277 345.31 345.277-345.31c19.076-19.044 44.061-28.583 69.046-28.583s50.010 9.506 69.078 28.583c38.12 38.145 38.12 99.982 0 138.127l-345.269 345.286 345.269 345.286c38.152 38.145 38.152 99.982 0 138.127z" />
<glyph unicode="&#xe906;" glyph-name="Icon-Commission" d="M512 960c282.325 0 512-229.675 512-512s-229.675-512-512-512c-282.325 0-512 229.675-512 512s229.675 512 512 512zM512 874.667c-235.264 0-426.667-191.403-426.667-426.667s191.403-426.667 426.667-426.667c235.264 0 426.667 191.403 426.667 426.667s-191.403 426.667-426.667 426.667zM532.832 768c23.219 0 42.043-18.824 42.043-42.043v0-28.115c61.645-18.187 106.781-75.269 106.781-142.739 0-23.219-18.824-42.043-42.043-42.043s-42.043 18.824-42.043 42.043c0 57.291-69.832 86.459-110.509 45.781-29.989-30.043-18.344-80.501 20.416-96.552v0l82.885-34.333c94.075-38.968 120.24-161.949 47.157-234.24-17.699-17.509-39.189-30.032-62.645-36.864v0-28.208c0-23.219-18.824-42.043-42.043-42.043s-42.053 18.824-42.053 42.043v0 28.144c-63.352 18.459-106.779 77.021-106.779 142.709 0 23.219 18.832 42.053 42.051 42.053s42.043-18.835 42.043-42.053c0-58.781 72.373-86.709 112.165-44.061 27.731 29.76 16.261 78.957-22.072 94.832v0l-82.885 34.333c-43.792 18.136-75.949 56.688-86 103.115-16.333 75.437 29.875 147.176 101.488 168.157v0 28.040c0 23.219 18.824 42.043 42.043 42.043z" />
<glyph unicode="&#xe907;" glyph-name="Icon-Copy" d="M731.427 777.144c60.594 0 109.714-49.121 109.714-109.714v0-621.715c0-60.594-49.121-109.714-109.714-109.714v0h-621.713c-60.594 0-109.714 49.121-109.714 109.714v0 621.715c0 60.594 49.121 109.714 109.714 109.714v0zM731.427 703.999h-621.713c-20.199 0-36.572-16.374-36.572-36.57v0-621.715c0-20.196 16.374-36.57 36.572-36.57v0h621.713c20.199 0 36.572 16.374 36.572 36.57v0 621.715c0 20.196-16.374 36.57-36.572 36.57v0zM914.286 960c60.594 0 109.714-49.121 109.714-109.714v0-658.285c0-60.594-49.121-109.714-109.714-109.714-20.199 0-36.572 16.374-36.572 36.572 0 20.196 16.374 36.57 36.572 36.57l5.932 0.479c17.376 2.834 30.638 17.915 30.638 36.093v0 658.285c0 20.199-16.374 36.572-36.57 36.572v0h-658.285c-20.199 0-36.572-16.374-36.572-36.572l-0.479-5.932c-2.834-17.377-17.915-30.64-36.093-30.64-20.196 0-36.57 16.374-36.57 36.572 0 60.594 49.121 109.714 109.714 109.714v0z" />
<glyph unicode="&#xe908;" glyph-name="Icon-Delete" d="M512 960c282.325 0 512-229.675 512-512s-229.675-512-512-512c-282.325 0-512 229.675-512 512s229.675 512 512 512zM512 874.667c-235.264 0-426.667-191.403-426.667-426.667s191.403-426.667 426.667-426.667c235.264 0 426.667 191.403 426.667 426.667s-191.403 426.667-426.667 426.667zM270.304 689.705c19.060 19.060 49.994 19.060 69.050 0v0l172.639-172.655 172.639 172.655c19.072 19.060 49.99 19.060 69.062 0 19.076-19.073 19.076-49.991 0-69.064v0l-172.634-172.643 172.634-172.643c19.060-19.073 19.060-49.991 0-69.064-9.534-9.538-22.047-14.291-34.539-14.291s-24.985 4.769-34.523 14.291v0l-172.639 172.655-172.639-172.655c-9.538-9.538-22.030-14.291-34.523-14.291s-25.005 4.769-34.527 14.291c-19.072 19.073-19.072 49.991 0 69.064v0l172.639 172.643-172.639 172.643c-19.072 19.073-19.072 49.991 0 69.064z" />
<glyph unicode="&#xe909;" d="M0 960h1024v-1024h-1024v1024z" />
<glyph unicode="&#xe90a;" d="M768.933 671.256c-15.428 15.431-37.56 19.859-57.753 11.551l-405.18-166.727c-20.683-8.548-33.599-28.453-32.907-50.652 0.461-22.259 14.474-41.368 35.714-48.682l138.479-47.321c8.103-2.843 16.94-1.191 23.67 4.439l175.045 148.494c10.235 8.623 11.517 24.007 2.858 34.299-8.628 10.239-24.014 11.521-34.313 2.844l-164.522-139.586-125.445 42.885c-0.799 0.271-2.92 0.991-3.073 4.167-0.145 2.972 2.017 3.828 2.799 4.14l405.17 166.821c0.691 0.284 2.788 1.144 4.924-0.998 2.146-2.147 1.288-4.236 1.006-4.921l-166.72-405.167c-0.565-1.365-1.515-2.759-4.288-2.803-2.686 0.169-3.517 1.56-4.024 3.080l-37.767 110.628c-4.302 12.643-18.161 19.442-30.914 15.137-12.639-4.301-19.434-18.159-15.14-30.918l37.774-110.649c7.277-21.119 26.362-35.212 48.621-35.908h1.728c21.546 0 40.813 12.917 49.092 32.919l166.718 405.175c8.309 20.189 3.884 42.32-11.551 57.754z" />
<glyph unicode="&#xe90b;" glyph-name="Icon-Export" d="M363.636 925.867v-147.036h-218.182v-661.662h654.545v291.793h145.455v-365.311c0-40.655-32.509-73.518-72.727-73.518v0h-800c-40.145 0-72.727 32.863-72.727 73.518v0 808.697c0 40.582 32.582 73.518 72.727 73.518v0h290.909zM712.568 880.609c11.144 5.499 24.595 4.335 34.486-3.041v0l263.758-194.085c8.308-6.081 13.188-15.721 13.188-25.878s-4.88-19.797-13.188-25.878v0l-263.758-194.085c-9.957-7.375-23.408-8.54-34.552-3.041s-18.199 16.691-18.199 28.919v0 97.042h-65.939c-113.152 0-214.831-61.719-265.406-161.026v0l-7.781-15.203c-5.671-11.128-17.21-17.856-29.475-17.856-2.506 0-5.077 0.259-7.583 0.841-14.836 3.429-25.387 16.497-25.387 31.506 0 196.22 162.672 355.822 362.667 355.822v0h38.904v97.042c0 12.227 7.056 23.42 18.265 28.919z" />
<glyph unicode="&#xe90c;" d="M27.69 925.867h955.733v-955.733h-955.733v955.733z" />
<glyph unicode="&#xe90d;" d="M508.422 148.062c-167.327 0-323.48 90.063-407.335 235.137-9.073 15.759-3.725 35.91 12.034 44.984s35.91 3.725 44.984-12.034c72.203-124.731 206.39-202.187 350.318-202.187s278.21 77.456 350.318 202.187c9.073 15.759 29.225 21.107 44.984 12.034s21.107-29.225 12.034-44.984c-83.855-145.074-240.008-235.137-407.335-235.137zM887.296 472.020c-11.365 0-22.444 5.921-28.556 16.427-72.203 124.731-206.39 202.187-350.318 202.187s-278.115-77.456-350.318-202.187c-9.073-15.759-29.225-21.107-44.984-12.034s-21.107 29.225-12.034 44.984c83.855 145.074 240.008 235.137 407.335 235.137s323.48-90.063 407.335-235.137c9.073-15.759 3.725-35.91-12.034-44.984-5.157-2.961-10.888-4.393-16.427-4.393zM508.422 272.125c-98.276 0-178.12 79.939-178.12 178.12s79.939 178.12 178.12 178.12c98.181 0 178.12-79.939 178.12-178.12s-79.843-178.12-178.12-178.12zM508.422 562.56c-61.888 0-112.316-50.332-112.316-112.316s50.332-112.316 112.316-112.316c61.984 0 112.316 50.427 112.316 112.316s-50.427 112.316-112.316 112.316z" />
<glyph unicode="&#xe90e;" d="M20.48 925.867h954.801v-954.801h-954.801v954.801z" />
<glyph unicode="&#xe90f;" d="M497.901 416.374c-171.732 0-343.198 52.143-465.386 156.216-7.028 6.127-11.323 14.803-11.935 24.107s2.509 18.468 8.673 25.463c12.883 14.602 35.144 16.048 49.809 3.236 215.467-185.391 623.14-185.391 837.679 0 14.664 12.812 36.925 11.366 49.809-3.236 12.837-14.587 11.405-36.786-3.262-49.597-122.188-104.047-293.654-156.19-465.386-156.19zM370.382 262.97c-2.089-0.23-4.197-0.23-6.286 0-9.628 1.326-18.3 6.631-23.817 14.587-5.543 7.983-7.426 17.929-5.251 27.371l23.26 136.722c3.395 19.228 21.715 32.078 40.95 28.724 9.243-1.569 17.481-6.752 22.895-14.406s7.559-17.148 5.961-26.386l-23.26-136.696c-2.452-17.149-17.129-29.894-34.452-29.917v0zM893.48 332.511c-9.283 0-18.194 3.766-24.666 10.423l-114.709 115.849c-9.933 8.539-14.205 21.948-11.041 34.659s13.223 22.554 26 25.44c12.759 2.959 26.103-1.451 34.585-11.431l114.735-115.849c13.606-13.579 13.606-35.566 0-49.146-6.737-6.365-15.648-9.919-24.931-9.946h0.027zM102.322 332.51c-8.694 0.425-16.947 3.954-23.26 9.946-6.538 6.506-10.214 15.349-10.214 24.573s3.676 18.067 10.214 24.573l114.709 115.849c8.038 11.438 22.113 16.992 35.796 14.125s24.344-13.604 27.115-27.306c2.684-13.72-3.13-27.71-14.746-35.487l-114.709-115.849c-6.541-6.713-15.532-10.475-24.904-10.424v0zM627.038 262.97c-16.857 0.048-31.263 12.153-34.214 28.75l-23.26 136.722c-4.279 12.809-0.729 26.938 9.097 36.203 9.839 9.291 24.152 12.079 36.76 7.161 12.625-4.96 21.218-16.709 22.093-30.156l23.26-136.722c1.697-9.071-0.318-18.433-5.623-26.018s-13.394-12.731-22.544-14.322c-1.798-0.717-3.664-1.25-5.57-1.591v-0.027z" />
<glyph unicode="&#xe910;" glyph-name="Icon-History" d="M515.233 647.11v-248.887l217.751-126.436 36.631 60.48-178.067 103.29v211.554h-76.315zM108.218 448h-108.218l160.374-167.861c1.087-1.257 1.922-1.885 2.506-1.885s1.331 0.628 2.24 1.885l155.445 167.861h-110.592c0 192.39 159.499 348.444 356.137 348.444s356.137-156.053 356.137-348.444c0-192.39-159.499-348.444-356.137-348.444-98.447 0-187.227 39.324-251.585 102.293l-71.991-70.436c82.676-81.137 196.893-131.413 323.321-131.413 253.114 0 458.146 200.604 458.146 448s-205.033 448-458.146 448c-253.111 0-457.636-200.604-457.636-448z" />
<glyph unicode="&#xe911;" glyph-name="Icon-Increase" d="M512 960c282.325 0 512-229.675 512-512s-229.675-512-512-512c-282.325 0-512 229.675-512 512s229.675 512 512 512zM512 874.667c-235.264 0-426.667-191.403-426.667-426.667s191.403-426.667 426.667-426.667c235.264 0 426.667 191.403 426.667 426.667s-191.403 426.667-426.667 426.667zM512 448c22.805 0 44.224-8.896 60.352-25.003v0l140.096-136.448c16.875-16.427 17.237-43.435 0.789-60.331-8.363-8.576-19.456-12.885-30.571-12.885-10.731 0-21.461 4.011-29.781 12.117v0l-140.501 136.832-141.291-136.832c-16.875-16.448-43.904-16.085-60.331 0.789-16.448 16.875-16.085 43.883 0.789 60.331v0l140.501 136.832c15.723 15.701 37.141 24.597 59.947 24.597zM512 682.667c22.805 0 44.224-8.896 60.352-25.003v0l140.096-136.448c16.875-16.427 17.237-43.435 0.789-60.331-8.363-8.576-19.456-12.885-30.571-12.885-10.731 0-21.461 4.011-29.781 12.117v0l-140.501 136.832-141.291-136.832c-16.875-16.469-43.904-16.085-60.331 0.789-16.448 16.875-16.085 43.883 0.789 60.331v0l140.501 136.832c15.723 15.701 37.141 24.597 59.947 24.597z" />
<glyph unicode="&#xe912;" glyph-name="Icon-leftarrow-small" d="M225.494 397.308l434.499-440.308c27.699-27.999 72.521-27.999 100.135 0 27.563 27.999 27.563 73.419 0 101.401l-384.465 389.608 384.398 389.539c27.631 27.999 27.631 73.402 0 101.401-27.614 28.068-72.436 28.068-100.067 0l-434.499-440.308c-13.824-13.991-20.694-32.286-20.694-50.632s6.87-36.778 20.694-50.701z" />
<glyph unicode="&#xe913;" glyph-name="Icon-Playstore" d="M895.248 524.927c-0.176 0.115-0.387 0.24-0.563 0.344l-145.717 84.853-161.544-162.304 161.637-161.979c0 0 146.011 85.125 146.187 85.219 27.093 16.459 43.28 45.219 43.28 76.939 0 31.728-16.187 60.491-43.28 76.928v0zM545.101 405.279l-459-461.176c12.176-5.645 25.136-8.104 38.072-8.104 15.981 0 31.928 3.821 46.365 12.499l524.928 306.085-150.365 150.696zM43.059 908.386c-5.8-12.272-8.925-25.939-8.925-40v-842.763c0-14.125 3.144-27.584 9-39.603l459.563 461.739-459.637 460.627zM170.539 946.946c-26.384 15.885-57.821 17.304-85.24 4.085l459.741-460.731 150.323 151.021-524.824 305.624z" />
<glyph unicode="&#xe914;" glyph-name="Icon-Reset" d="M705.839 590.926c-6.82-22.963 5.916-47.215 28.459-54.173l140.804-43.442c4.071-1.26 8.238-1.868 12.377-1.868 12.039 0 23.776 5.217 32.011 14.749l93.878 108.606c15.57 18.003 13.831 45.466-3.847 61.319-17.682 15.878-44.697 14.097-60.21-3.903l-43.083-49.865c-69.849 182.791-241.459 303.518-436.891 303.518-258.793 0-469.336-214.37-469.336-477.867s210.543-477.867 469.336-477.867c222.419 0 415.85 160.802 459.946 382.355 4.697 23.531-10.237 46.469-33.348 51.208-23.207 4.793-45.611-10.408-50.276-33.954-36.071-181.209-194.319-312.724-376.322-312.724-211.738 0-384.002 175.395-384.002 390.982s172.264 390.982 384.002 390.982c156.527 0 294.32-94.621 353.67-238.807l-63.961 19.741c-22.485 6.929-46.361-6.010-53.206-28.991z" />
<glyph unicode="&#xe915;" glyph-name="Icon-rightarrow-small" d="M760.106 397.308l-434.499-440.308c-27.699-27.999-72.521-27.999-100.135 0-27.563 27.999-27.563 73.419 0 101.401l384.465 389.608-384.398 389.539c-27.631 27.999-27.631 73.402 0 101.401 27.614 28.068 72.436 28.068 100.067 0l434.499-440.308c13.824-13.991 20.694-32.286 20.694-50.632s-6.87-36.778-20.694-50.701z" />
<glyph unicode="&#xe916;" glyph-name="Icon-select20" d="M512 82.286l512 731.429h-1024z" />
<glyph unicode="&#xe917;" glyph-name="Icon-select100" d="M512 82.286l512 731.429h-1024z" />
<glyph unicode="&#xe918;" glyph-name="Icon-social-fb" d="M638.611 615.234h-57.177c-11.319 0-22.748-11.696-22.748-20.405v-58.298h79.807c-3.206-44.7-9.804-85.577-9.804-85.577h-70.414v-253.328h-104.916v253.354h-51.072v85.251h51.072v69.692c0 12.745-2.578 98.077 107.503 98.077h77.749v-88.766z" />
<glyph unicode="&#xe919;" glyph-name="Icon-social-ins" d="M516.319 228.571c-1.453 0-2.907 0-4.37 0.007-34.399-0.084-66.183 0.79-97.095 2.672-28.339 1.725-54.207 11.517-74.812 28.319-19.881 16.212-33.459 38.133-40.353 65.146-6 23.517-6.318 46.604-6.623 68.933-0.221 16.021-0.448 35.006-0.495 54.311 0.047 19.386 0.274 38.371 0.495 54.392 0.305 22.326 0.623 45.412 6.623 68.933 6.894 27.014 20.471 48.934 40.353 65.146 20.605 16.802 46.473 26.595 74.816 28.319 30.91 1.878 62.702 2.756 97.175 2.672 34.41 0.074 66.184-0.794 97.095-2.672 28.34-1.725 54.208-11.517 74.813-28.319 19.885-16.212 33.459-38.133 40.353-65.146 6-23.517 6.318-46.607 6.622-68.933 0.221-16.021 0.453-35.006 0.495-54.311v-0.081c-0.043-19.305-0.274-38.29-0.495-54.311-0.304-22.326-0.619-45.412-6.622-68.933-6.894-27.014-20.468-48.934-40.353-65.146-20.605-16.802-46.473-26.595-74.813-28.319-29.601-1.802-60.009-2.679-92.809-2.679zM511.949 262.864c33.841-0.081 64.912 0.773 95.097 2.608 21.429 1.302 40.007 8.257 55.228 20.668 14.069 11.475 23.759 27.305 28.798 47.053 4.995 19.576 5.283 40.597 5.561 60.924 0.218 15.914 0.446 34.764 0.492 53.883-0.046 19.122-0.274 37.969-0.492 53.883-0.278 20.327-0.566 41.348-5.561 60.927-5.039 19.748-14.729 35.578-28.798 47.053-15.221 12.408-33.8 19.363-55.228 20.665-30.184 1.839-61.256 2.685-95.016 2.612-33.834 0.081-64.908-0.773-95.092-2.612-21.429-1.302-40.008-8.257-55.229-20.665-14.069-11.475-23.759-27.305-28.798-47.053-4.995-19.58-5.283-40.597-5.561-60.927-0.218-15.927-0.445-34.788-0.492-53.923 0.047-19.051 0.274-37.915 0.492-53.842 0.278-20.327 0.566-41.348 5.561-60.924 5.039-19.748 14.729-35.578 28.798-47.053 15.221-12.408 33.801-19.363 55.229-20.665 30.184-1.839 61.265-2.696 95.012-2.612zM511.133 340.857c-59.076 0-107.143 48.063-107.143 107.143s48.067 107.143 107.143 107.143c59.079 0 107.143-48.063 107.143-107.143s-48.063-107.143-107.143-107.143zM511.133 520.857c-40.172 0-72.857-32.685-72.857-72.857s32.685-72.857 72.857-72.857c40.175 0 72.857 32.685 72.857 72.857s-32.682 72.857-72.857 72.857zM630.275 589.429c-14.199 0-25.714-11.511-25.714-25.714s11.515-25.714 25.714-25.714c14.204 0 25.714 11.511 25.714 25.714s-11.511 25.714-25.714 25.714z" />
<glyph unicode="&#xe91a;" glyph-name="Icon-social-linkedin" d="M390.685 533.119v-278.606h-92.605v278.606h92.605zM618.040 539.658c60.961 0 106.652-39.812 106.652-125.378v-159.767h-92.634v149.055c0 37.439-13.382 62.99-46.905 62.99-25.607 0-40.818-17.206-47.521-33.875-2.436-5.952-3.071-14.225-3.071-22.578v-155.6h-92.648l0.008 1.747c0.106 22.347 1.168 252.005-0.008 276.866h92.648v-39.483c12.31 18.942 34.273 46.022 83.479 46.022zM344.993 667.429c31.694 0 51.18-20.791 51.787-48.127 0-26.752-20.092-48.158-52.394-48.158h-0.615c-31.065 0-51.2 21.406-51.2 48.158 0 27.336 20.727 48.127 52.421 48.127z" />
<glyph unicode="&#xe91b;" glyph-name="Icon-social-medium" d="M314.267 551.278c0.611 6.031-1.692 11.995-6.193 16.054l-45.881 55.27v8.256h142.456l110.112-241.488 96.807 241.488h135.802v-8.256l-39.227-37.61c-3.383-2.581-5.060-6.815-4.359-11.009v-276.345c-0.701-4.194 0.975-8.432 4.359-11.009l38.312-37.61v-8.256h-192.696v8.256l39.685 38.526c3.901 3.901 3.901 5.045 3.901 11.009v223.371l-110.341-280.246h-14.91l-128.465 280.246v-187.823c-1.073-7.896 1.553-15.848 7.112-21.557l51.613-62.61v-8.256h-146.353v8.256l51.616 62.61c5.518 5.72 7.986 13.725 6.65 21.557v217.178z" />
<glyph unicode="&#xe91c;" glyph-name="Icon-social-twitter" d="M710.53 564.941c0.201-4.454 0.302-8.934 0.302-13.439 0-137.286-104.49-295.585-295.585-295.585-58.666 0-113.273 17.196-159.247 46.676 8.13-0.962 16.393-1.455 24.782-1.455 48.672 0 93.464 16.603 129.023 44.475-45.463 0.836-83.828 30.869-97.048 72.146 6.347-1.215 12.854-1.867 19.543-1.867 9.478 0 18.654 1.271 27.377 3.642-47.523 9.553-83.341 51.533-83.341 101.868 0 0.435 0 0.87 0.009 1.307 14.007-7.778 30.024-12.451 47.054-12.995-27.873 18.628-46.207 50.427-46.207 86.473 0 19.040 5.123 36.881 14.065 52.228 51.24-62.852 127.79-104.213 214.13-108.551-1.777 7.611-2.696 15.54-2.696 23.678 0 57.37 46.518 103.888 103.885 103.888 29.883 0 56.885-12.618 75.831-32.804 23.661 4.655 45.898 13.304 65.978 25.21-7.761-24.263-24.231-44.617-45.682-57.477 21.016 2.512 41.035 8.096 59.672 16.36-13.923-20.832-31.54-39.134-51.844-53.777z" />
<glyph unicode="&#xe91d;" glyph-name="Icon-social-youtube" d="M714.32 567.776c-15.836 18.83-45.084 26.51-100.942 26.51h-202.763c-57.131 0-86.876-8.177-102.657-28.223-15.387-19.549-15.387-48.354-15.387-88.217v-75.975c0-77.225 18.255-116.432 118.044-116.432h202.763c48.442 0 75.283 6.774 92.648 23.39 17.806 17.046 25.402 44.87 25.402 93.041v75.975c0 42.042-1.189 71.012-17.108 89.93zM574.323 429.367l-92.073-48.117c-2.062-1.078-4.314-1.61-6.562-1.61-2.543 0-5.088 0.685-7.333 2.046-4.238 2.564-6.824 7.162-6.824 12.111v95.931c0 4.942 2.58 9.533 6.809 12.097 4.231 2.571 9.485 2.745 13.874 0.464l92.073-47.807c4.681-2.433 7.625-7.266 7.632-12.546s-2.925-10.12-7.597-12.568z" />
<glyph unicode="&#xe91e;" glyph-name="Icon-Triangle" d="M512 82.286l512 731.429h-1024z" />
<glyph unicode="&#xe91f;" glyph-name="Icon-TriangleTop" d="M512 813.714l512-731.429h-1024z" />
<glyph unicode="&#xe920;" glyph-name="Icon-Uploadimage" d="M908.935 960c63.449 0 115.065-51.619 115.065-115.065v0-793.867c0-63.449-51.616-115.068-115.065-115.068v0h-793.869c-63.449 0-115.065 51.619-115.065 115.068v0 793.867c0 63.446 51.616 115.065 115.065 115.065v0zM743.052 493.041l-288.001-288.001c-13.31-13.31-34.969-13.315-48.281 0v0l-156.653 156.653-181.762-181.769v-128.856c0-25.764 20.954-46.724 46.711-46.724v0h793.869c25.764 0 46.724 20.959 46.724 46.724v0 229.375l-212.607 212.598zM908.935 891.646h-793.869c-25.757 0-46.711-20.954-46.711-46.711v0-568.241l157.516 157.516c13.31 13.315 34.969 13.315 48.281 0v0l156.653-156.645 288.001 288.003c13.31 13.307 34.969 13.307 48.279 0v0l188.574-188.381v467.748c0 25.757-20.96 46.711-46.724 46.711v0zM320.827 801.865c75.575 0 137.058-61.483 137.058-137.058s-61.483-137.058-137.058-137.058c-75.572 0-137.055 61.483-137.055 137.058s61.483 137.058 137.055 137.058zM320.827 733.511c-37.882 0-68.704-30.821-68.704-68.703 0-37.89 30.821-68.714 68.704-68.714 37.89 0 68.717 30.824 68.717 68.714 0 37.882-30.826 68.703-68.717 68.703z" />
<glyph unicode="&#xe921;" glyph-name="Icon-User" d="M824.143 169.25c-25.362 85.18-84.346 155.965-161.32 196.564 50.075 42.607 81.923 105.905 81.923 176.554 0 127.923-104.383 232.025-232.729 232.025-128.311 0-232.729-104.102-232.729-232.025 0-70.649 31.813-133.947 81.923-176.554-77.007-40.599-135.958-111.384-161.354-196.564-66.357 74.46-106.773 172.743-106.773 280.281 0 230.289 187.944 417.665 418.932 417.665s418.932-187.376 418.932-417.665c0-107.539-40.415-205.821-106.807-280.281zM372.373 542.369c0 76.74 62.671 139.222 139.644 139.222s139.61-62.481 139.61-139.222c0-76.774-62.637-139.222-139.61-139.222s-139.644 62.447-139.644 139.222zM512.017 28.803c-85.541 0-165.177 25.898-231.568 70.275 11.879 118.463 111.244 211.266 231.568 211.266s219.655-92.803 231.568-211.266c-66.392-44.377-146.027-70.275-231.568-70.275zM512.017 960c-282.326 0-512.017-228.996-512.017-510.469 0-164.813 77.861-311.726 198.594-405.788 3.755-4.050 8.226-7.419 13.21-9.937 84.415-61.494 188.149-97.806 300.213-97.806s215.798 36.311 300.179 97.806c5.018 2.518 9.489 5.887 13.244 9.937 120.734 94.062 198.56 240.975 198.56 405.788 0 281.472-229.657 510.469-511.983 510.469z" />
</font>
</defs>
</svg>
